Skip to main content

Big Head Todd and the Monsters Live at House Of Blues on 2011-12-31




01. Flander's Fields
02. Midnight Radio
03. Bittersweet
04. Broken Hearted Savior
05. Kensington Line
06. Wearing Only Flowers
07. Helpless
08. Please Don't Tell Her
09. Resignation Superman
10. Secret Mission
11. Dirty Juice
12. Auld Lang Syne
13. Cashbox
14. Vincent of Jersey - Leaving Song
15. Blue Sky
16. All the Love You Need
17. Beautiful
18. Muhammad Ali
19. Rocksteady
20. Come On In My Kitchen
21. Circle
22. Black Betty


Collection BigHeadToddandtheMonsters
Band/Artist Big Head Todd and the Monsters
Venue House Of Blues
Location Chicago, IL USA

Source AKG C568EB Hybrid Shotguns @ 48 volts > Monster Studio Grade XLR > Zoom H4: 48khz / 24 bit
Lineage Mixed via Audacity 1.3 BETA > FLAC: 48/24: 8x
Taped by Barry Shoop
Transferred by Barry Shoop

Notes

with CVB & Cracker

recorded by Barry Shoop

CVB set is here: http://archive.org/details/CVB2011-12-31

Cracker set is here: http://archive.org/details/Cracker2011-12-31

files tagged by morst
***24-bit /48kHz high-resolution recording, NOT for direct CD burning without conversion***


SHNTOOL LEN:
length expanded size cdr WAVE problems fmt ratio filename
5:00.000 86400044 B cxx -- ---xx flac 0.6778 BHTM2011-12-31t01.flac
5:49.000 100512044 B cxx -- ---xx flac 0.6362 BHTM2011-12-31t02.flac
6:51.000 118368044 B cxx -- ---xx flac 0.6478 BHTM2011-12-31t03.flac
5:08.000 88704044 B cxx -- ---xx flac 0.6979 BHTM2011-12-31t04.flac
3:12.000 55296044 B cxx -- ---xx flac 0.6968 BHTM2011-12-31t05.flac
4:24.000 76032044 B cxx -- ---xx flac 0.6409 BHTM2011-12-31t06.flac
4:20.000 74880044 B cxx -- ---xx flac 0.6586 BHTM2011-12-31t07.flac
5:07.000 88416044 B cxx -- ---xx flac 0.6669 BHTM2011-12-31t08.flac
4:08.000 71424044 B cxx -- ---xx flac 0.7018 BHTM2011-12-31t09.flac
4:40.000 80640044 B cxx -- ---xx flac 0.7080 BHTM2011-12-31t10.flac
6:10.000 106560044 B cxx -- ---xx flac 0.6949 BHTM2011-12-31t11.flac
3:48.000 65664044 B cxx -- ---xx flac 0.6251 BHTM2011-12-31t12.flac
3:52.000 66816044 B cxx -- ---xx flac 0.6713 BHTM2011-12-31t13.flac
6:20.000 109440044 B cxx -- ---xx flac 0.6665 BHTM2011-12-31t14.flac
4:22.000 75456044 B cxx -- ---xx flac 0.7182 BHTM2011-12-31t15.flac
5:26.000 93888044 B cxx -- ---xx flac 0.6429 BHTM2011-12-31t16.flac
4:00.000 69120044 B cxx -- ---xx flac 0.6693 BHTM2011-12-31t17.flac
3:57.000 68256044 B cxx -- ---xx flac 0.6662 BHTM2011-12-31t18.flac
5:08.000 88704044 B cxx -- ---xx flac 0.6862 BHTM2011-12-31t19.flac
5:16.000 91008044 B cxx -- ---xx flac 0.6701 BHTM2011-12-31t20.flac
5:33.000 95904044 B cxx -- ---xx flac 0.6836 BHTM2011-12-31t21.flac
5:03.000 87264044 B cxx -- ---xx flac 0.6920 BHTM2011-12-31t22.flac
107:34.000 1858752968 B 0.6729 (22 files)

Reviews

Reviewer: soulcowboy00 - - January 26, 2013
Subject: Awesome!!
Thanks for taping and sharing this great sounding show!!
DOWNLOAD OPTIONS
Uploaded by
morst
on 1/25/2013
Views
519
Favorites
1
Reviews
1
PEOPLE ALSO FOUND
Big Head Todd and the Monsters
by Big Head Todd and the Monsters
399
1
1
( 1 reviews )
Source: Neumann KM140's > Shure FP24 > Sony PCM-M10 > WAV @24/48
Big Head Todd and the Monsters
by Big Head Todd and the Monsters
519
1
1
( 1 reviews )
Source: AKG C568EB Hybrid Shotguns @ 48 volts > Monster Studio Grade XLR > Zoom H4: 48khz / 24 bit
Big Head Todd and the Monsters
by Big Head Todd and the Monsters
1,059
1
0
Source: Realistic PZM microphones (12V, on stand) > Marantz PMD430 > Sony Metal Master 90 Cassette (no NR)
Dead Rock West
by Dead Rock West
166
1
0
Source: AT853 > AT8531 > Edirol R-09
Cracker
by Cracker
246
1
0
Source: DAUD @48kHz, 24 bit
The Kind
by The Kind
3,210
0
1
( 1 reviews )
Source: Sony ECM-909 > D6 > CAS
Mojo Radio
by Mojo Radio
178
1
0
Source: Zoom H2 handy recorder, Built-in mics @ 90degrees > WAV @24bit/48kHz
ted quinn
259
1
0
Source: DAUD
Flame Shark
by Flame Shark
1,083
1
0
Source: KM140's > MV100 > PCM-M1
Community Audio
by Vladimir Noskov
11
1
0